torrents rarbg
Catalog Top 10

RARBG
Home
Movies
XXX
TV Shows
Games
Music
Anime
Apps
Doc
Other
Non XXX

Echo.3.S01E01.Flyaway.1080p.ATVP.WEBMux.ITA.ENG.DDP5.1.Atmos.H.264-BlackBit.mkv

Torrent:


Echo.3.S01E01.Flyaway.1080p.ATVP.WEBMux.ITA.ENG.DDP5.1.Atmos.H.264-BlackBit.mkv
VPN:
Downloading torrents is getting riskier every day. Use a VPN to make yourself hidden while downloading torrents.
By using a VPN , your ISP and Government Agencies will not be able to spy on you, neither would they be able to track your online activity!
Description:



DATI - TRAMA

Titolo originale: Echo 3
Genere: Azione, drammatico e thriller
Regista: Mark Boal
Attori: Michiel Huisman, Luke Evans, Jessica Ann Collins
Stagione: 1
Episodi: 10
Nazione: Stati Uniti d'America

Quando la brillante scienziata Amber Chesborough scompare al confine tra Colombia e Venezuela, suo fratello e suo marito, entrambi nell'esercito americano, lottano per trovarla nel bel mezzo di una guerra, scoprendo che la donna che amano potrebbe avere un segreto.

IMMAGINI





REPORT

General
Unique ID : 322335106220586046604020449559665219921 (0xF27F7BBAD7C99B7B5DD2F3AF7E589951)
Complete name : C:\Users\Administrator\Videos\Echo 3 S01\Ep 01\Echo.3.S01E01.Flyaway.1080p.ATVP.WEBMux.ITA.ENG.DDP5.1.Atmos.H.264-BlackBit.mkv
Format : Matroska
Format version : Version 4
File size : 4.74 GiB
Duration : 58 min 7 s
Overall bit rate : 11.7 Mb/s
Encoded date : UTC 2022-11-23 09:56:20
Writing application : mkvmerge v72.0.0 ('Minuano (Six-eight)') 64-bit
Writing library : libebml v1.4.4 + libmatroska v1.7.1

Video
ID : 1
Format : AVC
Format/Info : Advanced Video Codec
Format profile : [email protected]
Format settings : CABAC / 5 Ref Frames
Format settings, CABAC : Yes
Format settings, Reference : 5 frames
Codec ID : V_MPEG4/ISO/AVC
Duration : 58 min 7 s
Bit rate : 10.1 Mb/s
Width : 1 918 pixels
Height : 802 pixels
Display aspect ratio : 2.40:1
Frame rate mode : Constant
Frame rate : 23.976 (24000/1001) FPS
Color space : YUV
Chroma subsampling : 4:2:0
Bit depth : 8 bits
Scan type : Progressive
Bits/(Pixel*Frame) : 0.275
Stream size : 4.11 GiB (87%)
Default : Yes
Forced : Yes
Color range : Limited
Color primaries : BT.709
Transfer characteristics : BT.709
Matrix coefficients : BT.709

Audio #1
ID : 2
Format : E-AC-3 JOC
Format/Info : Enhanced AC-3 with Joint Object Coding
Commercial name : Dolby Digital Plus with Dolby Atmos
Codec ID : A_EAC3
Duration : 58 min 7 s
Bit rate mode : Constant
Bit rate : 768 kb/s
Channel(s) : 6 channels
Channel layout : L R C LFE Ls Rs
Sampling rate : 48.0 kHz
Frame rate : 31.250 FPS (1536 SPF)
Compression mode : Lossy
Stream size : 319 MiB (7%)
Language : Italian
Service kind : Complete Main
Default : Yes
Forced : Yes
Complexity index : 16
Number of dynamic objects : 15
Bed channel count : 1 channel
Bed channel configuration : LFE

Audio #2
ID : 3
Format : E-AC-3 JOC
Format/Info : Enhanced AC-3 with Joint Object Coding
Commercial name : Dolby Digital Plus with Dolby Atmos
Codec ID : A_EAC3
Duration : 58 min 7 s
Bit rate mode : Constant
Bit rate : 768 kb/s
Channel(s) : 6 channels
Channel layout : L R C LFE Ls Rs
Sampling rate : 48.0 kHz
Frame rate : 31.250 FPS (1536 SPF)
Compression mode : Lossy
Stream size : 319 MiB (7%)
Language : English
Service kind : Complete Main
Default : No
Forced : No
Complexity index : 16
Number of dynamic objects : 15
Bed channel count : 1 channel
Bed channel configuration : LFE

Text #1
ID : 4
Format : UTF-8
Codec ID : S_TEXT/UTF8
Codec ID/Info : UTF-8 Plain Text
Duration : 54 min 11 s
Bit rate : 1 b/s
Frame rate : 0.007 FPS
Count of elements : 23
Stream size : 639 Bytes (0%)
Language : Italian
Default : Yes
Forced : Yes

Text #2
ID : 5
Format : UTF-8
Codec ID : S_TEXT/UTF8
Codec ID/Info : UTF-8 Plain Text
Duration : 1 min 20 s
Bit rate : 34 b/s
Frame rate : 0.174 FPS
Count of elements : 14
Stream size : 342 Bytes (0%)
Title : Forced
Language : English
Default : No
Forced : No

Text #3
ID : 6
Format : UTF-8
Codec ID : S_TEXT/UTF8
Codec ID/Info : UTF-8 Plain Text
Duration : 53 min 47 s
Bit rate : 49 b/s
Frame rate : 0.168 FPS
Count of elements : 543
Stream size : 19.3 KiB (0%)
Language : English
Default : No
Forced : No

Text #4
ID : 7
Format : UTF-8
Codec ID : S_TEXT/UTF8
Codec ID/Info : UTF-8 Plain Text
Duration : 55 min 0 s
Bit rate : 61 b/s
Frame rate : 0.207 FPS
Count of elements : 682
Stream size : 24.6 KiB (0%)
Title : SDH
Language : English
Default : No
Forced : No

Text #5
ID : 8
Format : UTF-8
Codec ID : S_TEXT/UTF8
Codec ID/Info : UTF-8 Plain Text
Duration : 57 min 23 s
Bit rate : 63 b/s
Frame rate : 0.163 FPS
Count of elements : 560
Stream size : 26.8 KiB (0%)
Language : Arabic
Default : No
Forced : No

Text #6
ID : 9
Format : UTF-8
Codec ID : S_TEXT/UTF8
Codec ID/Info : UTF-8 Plain Text
Duration : 57 min 23 s
Bit rate : 63 b/s
Frame rate : 0.152 FPS
Count of elements : 522
Stream size : 26.8 KiB (0%)
Language : Bulgarian
Default : No
Forced : No

Text #7
ID : 10
Format : UTF-8
Codec ID : S_TEXT/UTF8
Codec ID/Info : UTF-8 Plain Text
Duration : 57 min 23 s
Bit rate : 41 b/s
Frame rate : 0.163 FPS
Count of elements : 561
Stream size : 17.4 KiB (0%)
Title : Chinese (Simplified)
Language : Chinese
Default : No
Forced : No

Text #8
ID : 11
Format : UTF-8
Codec ID : S_TEXT/UTF8
Codec ID/Info : UTF-8 Plain Text
Duration : 57 min 46 s
Bit rate : 41 b/s
Frame rate : 0.162 FPS
Count of elements : 562
Stream size : 17.7 KiB (0%)
Title : Chinese (Traditional)
Language : Chinese
Default : No
Forced : No

Text #9
ID : 12
Format : UTF-8
Codec ID : S_TEXT/UTF8
Codec ID/Info : UTF-8 Plain Text
Duration : 57 min 23 s
Bit rate : 40 b/s
Frame rate : 0.157 FPS
Count of elements : 542
Stream size : 17.1 KiB (0%)
Language : Czech
Default : No
Forced : No

Text #10
ID : 13
Format : UTF-8
Codec ID : S_TEXT/UTF8
Codec ID/Info : UTF-8 Plain Text
Duration : 57 min 23 s
Bit rate : 44 b/s
Frame rate : 0.150 FPS
Count of elements : 516
Stream size : 18.7 KiB (0%)
Language : Danish
Default : No
Forced : No

Text #11
ID : 14
Format : UTF-8
Codec ID : S_TEXT/UTF8
Codec ID/Info : UTF-8 Plain Text
Duration : 57 min 31 s
Bit rate : 51 b/s
Frame rate : 0.159 FPS
Count of elements : 547
Stream size : 21.7 KiB (0%)
Language : German
Default : No
Forced : No

Text #12
ID : 15
Format : UTF-8
Codec ID : S_TEXT/UTF8
Codec ID/Info : UTF-8 Plain Text
Duration : 57 min 23 s
Bit rate : 76 b/s
Frame rate : 0.156 FPS
Count of elements : 537
Stream size : 32.0 KiB (0%)
Language : Greek
Default : No
Forced : No

Text #13
ID : 16
Format : UTF-8
Codec ID : S_TEXT/UTF8
Codec ID/Info : UTF-8 Plain Text
Duration : 57 min 23 s
Bit rate : 45 b/s
Frame rate : 0.162 FPS
Count of elements : 559
Stream size : 19.1 KiB (0%)
Title : Spanish (Latin America)
Language : Spanish
Default : No
Forced : No

Text #14
ID : 17
Format : UTF-8
Codec ID : S_TEXT/UTF8
Codec ID/Info : UTF-8 Plain Text
Duration : 57 min 23 s
Bit rate : 41 b/s
Frame rate : 0.157 FPS
Count of elements : 539
Stream size : 17.5 KiB (0%)
Title : Spanish (Spain)
Language : Spanish
Default : No
Forced : No

Text #15
ID : 18
Format : UTF-8
Codec ID : S_TEXT/UTF8
Codec ID/Info : UTF-8 Plain Text
Duration : 57 min 23 s
Bit rate : 43 b/s
Frame rate : 0.160 FPS
Count of elements : 550
Stream size : 18.2 KiB (0%)
Language : Estonian
Default : No
Forced : No

Text #16
ID : 19
Format : UTF-8
Codec ID : S_TEXT/UTF8
Codec ID/Info : UTF-8 Plain Text
Duration : 57 min 23 s
Bit rate : 43 b/s
Frame rate : 0.160 FPS
Count of elements : 551
Stream size : 18.2 KiB (0%)
Language : Finnish
Default : No
Forced : No

Text #17
ID : 20
Format : UTF-8
Codec ID : S_TEXT/UTF8
Codec ID/Info : UTF-8 Plain Text
Duration : 57 min 38 s
Bit rate : 42 b/s
Frame rate : 0.174 FPS
Count of elements : 603
Stream size : 17.8 KiB (0%)
Title : French (Canada)
Language : French
Default : No
Forced : No

Text #18
ID : 21
Format : UTF-8
Codec ID : S_TEXT/UTF8
Codec ID/Info : UTF-8 Plain Text
Duration : 57 min 15 s
Bit rate : 42 b/s
Frame rate : 0.175 FPS
Count of elements : 602
Stream size : 17.8 KiB (0%)
Title : French (France)
Language : French
Default : No
Forced : No

Text #19
ID : 22
Format : UTF-8
Codec ID : S_TEXT/UTF8
Codec ID/Info : UTF-8 Plain Text
Duration : 57 min 23 s
Bit rate : 60 b/s
Frame rate : 0.163 FPS
Count of elements : 561
Stream size : 25.4 KiB (0%)
Language : Hebrew
Default : No
Forced : No

Text #20
ID : 23
Format : UTF-8
Codec ID : S_TEXT/UTF8
Codec ID/Info : UTF-8 Plain Text
Duration : 57 min 46 s
Bit rate : 118 b/s
Frame rate : 0.162 FPS
Count of elements : 562
Stream size : 50.3 KiB (0%)
Language : Hindi
Default : No
Forced : No

Text #21
ID : 24
Format : UTF-8
Codec ID : S_TEXT/UTF8
Codec ID/Info : UTF-8 Plain Text
Duration : 57 min 23 s
Bit rate : 45 b/s
Frame rate : 0.160 FPS
Count of elements : 552
Stream size : 18.9 KiB (0%)
Language : Hungarian
Default : No
Forced : No

Text #22
ID : 25
Format : UTF-8
Codec ID : S_TEXT/UTF8
Codec ID/Info : UTF-8 Plain Text
Duration : 57 min 23 s
Bit rate : 46 b/s
Frame rate : 0.162 FPS
Count of elements : 558
Stream size : 19.5 KiB (0%)
Language : Indonesian
Default : No
Forced : No

Text #23
ID : 26
Format : UTF-8
Codec ID : S_TEXT/UTF8
Codec ID/Info : UTF-8 Plain Text
Duration : 57 min 31 s
Bit rate : 45 b/s
Frame rate : 0.160 FPS
Count of elements : 552
Stream size : 19.0 KiB (0%)
Language : Italian
Default : No
Forced : No

Text #24
ID : 27
Format : UTF-8
Codec ID : S_TEXT/UTF8
Codec ID/Info : UTF-8 Plain Text
Duration : 57 min 52 s
Bit rate : 34 b/s
Frame rate : 0.177 FPS
Count of elements : 616
Stream size : 14.8 KiB (0%)
Language : Japanese
Default : No
Forced : No

Text #25
ID : 28
Format : UTF-8
Codec ID : S_TEXT/UTF8
Codec ID/Info : UTF-8 Plain Text
Duration : 57 min 46 s
Bit rate : 52 b/s
Frame rate : 0.175 FPS
Count of elements : 608
Stream size : 22.0 KiB (0%)
Language : Korean
Default : No
Forced : No

Text #26
ID : 29
Format : UTF-8
Codec ID : S_TEXT/UTF8
Codec ID/Info : UTF-8 Plain Text
Duration : 57 min 23 s
Bit rate : 42 b/s
Frame rate : 0.161 FPS
Count of elements : 556
Stream size : 17.9 KiB (0%)
Language : Lithuanian
Default : No
Forced : No

Text #27
ID : 30
Format : UTF-8
Codec ID : S_TEXT/UTF8
Codec ID/Info : UTF-8 Plain Text
Duration : 57 min 23 s
Bit rate : 45 b/s
Frame rate : 0.160 FPS
Count of elements : 551
Stream size : 19.2 KiB (0%)
Language : Latvian
Default : No
Forced : No

Text #28
ID : 31
Format : UTF-8
Codec ID : S_TEXT/UTF8
Codec ID/Info : UTF-8 Plain Text
Duration : 57 min 23 s
Bit rate : 45 b/s
Frame rate : 0.162 FPS
Count of elements : 557
Stream size : 19.3 KiB (0%)
Language : Malay
Default : No
Forced : No

Text #29
ID : 32
Format : UTF-8
Codec ID : S_TEXT/UTF8
Codec ID/Info : UTF-8 Plain Text
Duration : 57 min 23 s
Bit rate : 39 b/s
Frame rate : 0.137 FPS
Count of elements : 471
Stream size : 16.5 KiB (0%)
Language : Dutch
Default : No
Forced : No

Text #30
ID : 33
Format : UTF-8
Codec ID : S_TEXT/UTF8
Codec ID/Info : UTF-8 Plain Text
Duration : 57 min 23 s
Bit rate : 41 b/s
Frame rate : 0.146 FPS
Count of elements : 504
Stream size : 17.3 KiB (0%)
Language : Norwegian
Default : No
Forced : No

Text #31
ID : 34
Format : UTF-8
Codec ID : S_TEXT/UTF8
Codec ID/Info : UTF-8 Plain Text
Duration : 57 min 46 s
Bit rate : 40 b/s
Frame rate : 0.155 FPS
Count of elements : 538
Stream size : 17.0 KiB (0%)
Language : Polish
Default : No
Forced : No

Text #32
ID : 35
Format : UTF-8
Codec ID : S_TEXT/UTF8
Codec ID/Info : UTF-8 Plain Text
Duration : 57 min 23 s
Bit rate : 45 b/s
Frame rate : 0.162 FPS
Count of elements : 557
Stream size : 19.2 KiB (0%)
Title : Portuguese
Language : Portuguese
Default : No
Forced : No

Text #33
ID : 36
Format : UTF-8
Codec ID : S_TEXT/UTF8
Codec ID/Info : UTF-8 Plain Text
Duration : 57 min 23 s
Bit rate : 42 b/s
Frame rate : 0.158 FPS
Count of elements : 544
Stream size : 18.0 KiB (0%)
Title : Portuguese (Brazil)
Language : Portuguese
Default : No
Forced : No

Text #34
ID : 37
Format : UTF-8
Codec ID : S_TEXT/UTF8
Codec ID/Info : UTF-8 Plain Text
Duration : 57 min 54 s
Bit rate : 68 b/s
Frame rate : 0.162 FPS
Count of elements : 562
Stream size : 29.1 KiB (0%)
Language : Russian
Default : No
Forced : No

Text #35
ID : 38
Format : UTF-8
Codec ID : S_TEXT/UTF8
Codec ID/Info : UTF-8 Plain Text
Duration : 57 min 23 s
Bit rate : 42 b/s
Frame rate : 0.162 FPS
Count of elements : 557
Stream size : 18.0 KiB (0%)
Language : Slovak
Default : No
Forced : No

Text #36
ID : 39
Format : UTF-8
Codec ID : S_TEXT/UTF8
Codec ID/Info : UTF-8 Plain Text
Duration : 57 min 23 s
Bit rate : 35 b/s
Frame rate : 0.138 FPS
Count of elements : 476
Stream size : 14.9 KiB (0%)
Language : Slovenian
Default : No
Forced : No

Text #37
ID : 40
Format : UTF-8
Codec ID : S_TEXT/UTF8
Codec ID/Info : UTF-8 Plain Text
Duration : 57 min 23 s
Bit rate : 45 b/s
Frame rate : 0.158 FPS
Count of elements : 545
Stream size : 19.1 KiB (0%)
Language : Swedish
Default : No
Forced : No

Text #38
ID : 41
Format : UTF-8
Codec ID : S_TEXT/UTF8
Codec ID/Info : UTF-8 Plain Text
Duration : 57 min 23 s
Bit rate : 142 b/s
Frame rate : 0.163 FPS
Count of elements : 561
Stream size : 60.0 KiB (0%)
Language : Tamil
Default : No
Forced : No

Text #39
ID : 42
Format : UTF-8
Codec ID : S_TEXT/UTF8
Codec ID/Info : UTF-8 Plain Text
Duration : 57 min 23 s
Bit rate : 135 b/s
Frame rate : 0.163 FPS
Count of elements : 561
Stream size : 57.0 KiB (0%)
Language : Telugu
Default : No
Forced : No

Text #40
ID : 43
Format : UTF-8
Codec ID : S_TEXT/UTF8
Codec ID/Info : UTF-8 Plain Text
Duration : 57 min 23 s
Bit rate : 115 b/s
Frame rate : 0.163 FPS
Count of elements : 561
Stream size : 48.6 KiB (0%)
Language : Thai
Default : No
Forced : No

Text #41
ID : 44
Format : UTF-8
Codec ID : S_TEXT/UTF8
Codec ID/Info : UTF-8 Plain Text
Duration : 57 min 23 s
Bit rate : 46 b/s
Frame rate : 0.162 FPS
Count of elements : 557
Stream size : 19.7 KiB (0%)
Language : Turkish
Default : No
Forced : No

Text #42
ID : 45
Format : UTF-8
Codec ID : S_TEXT/UTF8
Codec ID/Info : UTF-8 Plain Text
Duration : 57 min 46 s
Bit rate : 68 b/s
Frame rate : 0.161 FPS
Count of elements : 559
Stream size : 29.0 KiB (0%)
Language : Ukrainian
Default : No
Forced : No

Text #43
ID : 46
Format : UTF-8
Codec ID : S_TEXT/UTF8
Codec ID/Info : UTF-8 Plain Text
Duration : 57 min 23 s
Bit rate : 60 b/s
Frame rate : 0.162 FPS
Count of elements : 558
Stream size : 25.3 KiB (0%)
Language : Vietnamese
Default : No
Forced : No

Text #44
ID : 47
Format : UTF-8
Codec ID : S_TEXT/UTF8
Codec ID/Info : UTF-8 Plain Text
Duration : 57 min 46 s
Bit rate : 40 b/s
Frame rate : 0.162 FPS
Count of elements : 562
Stream size : 17.0 KiB (0%)
Title : Cantonese (Traditional)
Language : Chinese
Default : No
Forced : No

GOOD DOWNLOAD


Downloads: 8
Category: TV/HD
Size: 4.7 GB
Show Files »
files
Added: 2022-11-24 10:05:06
Language: English
Peers: Seeders : 9 , Leechers : 5
Release name: Echo.3.S01E01.Flyaway.1080p.ATVP.WEBMux.ITA.ENG.DDP5.1.Atmos.H.264-BlackBit.mkv
Trackers:

udp://tracker.opentrackr.org:1337/announce

udp://tracker.torrent.eu.org:451/announce

udp://open.stealth.si:80/announce

http://tracker.bt4g.com:2095/announce

udp://tracker.openbittorrent.com:80/announce

udp://tracker.tiny-vps.com:6969/announce

udp://p4p.arenabg.com:1337/announce

udp://explodie.org:6969/announce

udp://exodus.desync.com:6969/announce

udp://9.rarbg.me:2720/announce

udp://9.rarbg.to:2720/announce





By using this site you agree to and accept our user agreement. If you havent read the user agreement please do so here