torrents rarbg
Catalog Top 10

RARBG
Home
Movies
XXX
TV Shows
Games
Music
Anime
Apps
Doc
Other
Non XXX

Echo.3.S01E01.Flyaway.ATVP.WEBMux.ITA.ENG.x264-BlackBit.mkv

Torrent:


Echo.3.S01E01.Flyaway.ATVP.WEBMux.ITA.ENG.x264-BlackBit.mkv
VPN:
Downloading torrents is getting riskier every day. Use a VPN to make yourself hidden while downloading torrents.
By using a VPN , your ISP and Government Agencies will not be able to spy on you, neither would they be able to track your online activity!
Description:



DATI - TRAMA

Titolo originale: Echo 3
Genere: Azione, drammatico e thriller
Regista: Mark Boal
Attori: Michiel Huisman, Luke Evans, Jessica Ann Collins
Stagione: 1
Episodi: 10
Nazione: Stati Uniti d'America


Quando la brillante scienziata Amber Chesborough scompare al confine tra Colombia e Venezuela, suo fratello e suo marito, entrambi nell'esercito americano, lottano per trovarla nel bel mezzo di una guerra, scoprendo che la donna che amano potrebbe avere un segreto.

IMMAGINI





REPORT


General
Unique ID : 174285977039396083334796566941457946717 (0x831E4219D58291A7E430A9D1E7C3985D)
Complete name : C:\Users\Administrator\Videos\Echo 3 S01\Ep 01\Echo.3.S01E01.Flyaway.ATVP.WEBMux.ITA.ENG.x264-BlackBit.mkv
Format : Matroska
Format version : Version 4
File size : 564 MiB
Duration : 58 min 7 s
Overall bit rate : 1 356 kb/s
Encoded date : UTC 2022-11-23 13:43:28
Writing application : mkvmerge v72.0.0 ('Minuano (Six-eight)') 64-bit
Writing library : libebml v1.4.4 + libmatroska v1.7.1

Video
ID : 1
Format : AVC
Format/Info : Advanced Video Codec
Format profile : [email protected]
Format settings : CABAC / 16 Ref Frames
Format settings, CABAC : Yes
Format settings, Reference : 16 frames
Codec ID : V_MPEG4/ISO/AVC
Duration : 58 min 7 s
Bit rate : 973 kb/s
Width : 768 pixels
Height : 322 pixels
Display aspect ratio : 2.40:1
Frame rate mode : Constant
Frame rate : 23.976 (24000/1001) FPS
Color space : YUV
Chroma subsampling : 4:2:0
Bit depth : 8 bits
Scan type : Progressive
Bits/(Pixel*Frame) : 0.164
Stream size : 404 MiB (72%)
Writing library : x264 core 157 r2969 d4099dd
Encoding settings : cabac=1 / ref=16 / deblock=1:0:0 / analyse=0x3:0x133 / me=umh / subme=10 / psy=1 / psy_rd=1.00:0.00 / mixed_ref=1 / me_range=24 / chroma_me=1 / trellis=2 / 8x8dct=1 / cqm=0 / deadzone=21,11 / fast_pskip=1 / chroma_qp_offset=-2 / threads=10 / lookahead_threads=1 / sliced_threads=0 / nr=0 / decimate=1 / interlaced=0 / bluray_compat=0 / constrained_intra=0 / bframes=8 / b_pyramid=2 / b_adapt=2 / b_bias=0 / direct=3 / weightb=1 / open_gop=0 / weightp=2 / keyint=240 / keyint_min=23 / scenecut=40 / intra_refresh=0 / rc_lookahead=60 / rc=crf / mbtree=1 / crf=17.7 / qcomp=0.60 / qpmin=0 / qpmax=69 / qpstep=4 / vbv_maxrate=17500 / vbv_bufsize=17500 / crf_max=0.0 / nal_hrd=none / filler=0 / ip_ratio=1.40 / aq=1:1.00
Default : Yes
Forced : Yes
Color range : Limited
Matrix coefficients : BT.709

Audio #1
ID : 2
Format : AAC LC
Format/Info : Advanced Audio Codec Low Complexity
Codec ID : A_AAC-2
Duration : 58 min 7 s
Bit rate : 192 kb/s
Channel(s) : 2 channels
Channel layout : L R
Sampling rate : 48.0 kHz
Frame rate : 46.875 FPS (1024 SPF)
Compression mode : Lossy
Delay relative to video : 9 ms
Stream size : 79.2 MiB (14%)
Language : Italian
Default : Yes
Forced : Yes

Audio #2
ID : 3
Format : AAC LC
Format/Info : Advanced Audio Codec Low Complexity
Codec ID : A_AAC-2
Duration : 58 min 7 s
Bit rate : 192 kb/s
Channel(s) : 2 channels
Channel layout : L R
Sampling rate : 48.0 kHz
Frame rate : 46.875 FPS (1024 SPF)
Compression mode : Lossy
Delay relative to video : 9 ms
Stream size : 78.9 MiB (14%)
Language : English
Default : No
Forced : No

Text #1
ID : 4
Format : UTF-8
Codec ID : S_TEXT/UTF8
Codec ID/Info : UTF-8 Plain Text
Duration : 54 min 11 s
Bit rate : 1 b/s
Frame rate : 0.007 FPS
Count of elements : 23
Stream size : 639 Bytes (0%)
Language : Italian
Default : Yes
Forced : Yes

Text #2
ID : 5
Format : UTF-8
Codec ID : S_TEXT/UTF8
Codec ID/Info : UTF-8 Plain Text
Duration : 57 min 31 s
Bit rate : 45 b/s
Frame rate : 0.160 FPS
Count of elements : 552
Stream size : 19.0 KiB (0%)
Language : Italian
Default : No
Forced : No

Text #3
ID : 6
Format : UTF-8
Codec ID : S_TEXT/UTF8
Codec ID/Info : UTF-8 Plain Text
Duration : 1 min 20 s
Bit rate : 34 b/s
Frame rate : 0.174 FPS
Count of elements : 14
Stream size : 342 Bytes (0%)
Title : Forced
Language : English
Default : No
Forced : No

Text #4
ID : 7
Format : UTF-8
Codec ID : S_TEXT/UTF8
Codec ID/Info : UTF-8 Plain Text
Duration : 53 min 47 s
Bit rate : 49 b/s
Frame rate : 0.168 FPS
Count of elements : 543
Stream size : 19.3 KiB (0%)
Language : English
Default : No
Forced : No

Text #5
ID : 8
Format : UTF-8
Codec ID : S_TEXT/UTF8
Codec ID/Info : UTF-8 Plain Text
Duration : 55 min 0 s
Bit rate : 61 b/s
Frame rate : 0.207 FPS
Count of elements : 682
Stream size : 24.6 KiB (0%)
Title : SDH
Language : English
Default : No
Forced : No

GOOD DOWNLOAD



Downloads: 15
Category: TV/SD
Size: 563.8 MB
Show Files »
files
Added: 2022-11-24 10:04:43
Language: English
Peers: Seeders : 9 , Leechers : 0
Release name: Echo.3.S01E01.Flyaway.ATVP.WEBMux.ITA.ENG.x264-BlackBit.mkv
Trackers:

udp://tracker.opentrackr.org:1337/announce

udp://tracker.torrent.eu.org:451/announce

udp://open.stealth.si:80/announce

http://tracker.bt4g.com:2095/announce

udp://tracker.openbittorrent.com:80/announce

udp://tracker.tiny-vps.com:6969/announce

udp://p4p.arenabg.com:1337/announce

udp://explodie.org:6969/announce

udp://exodus.desync.com:6969/announce

udp://9.rarbg.me:2720/announce

udp://9.rarbg.to:2720/announce





By using this site you agree to and accept our user agreement. If you havent read the user agreement please do so here