torrents rarbg
Catalog Top 10

RARBG
Home
Movies
XXX
TV Shows
Games
Music
Anime
Apps
Doc
Other
Non XXX

Flic Story (1975) Remux BluRay 1080p DTS

Torrent:


Flic Story (1975) Remux BluRay 1080p DTS
VPN:
Downloading torrents is getting riskier every day. Use a VPN to make yourself hidden while downloading torrents.
By using a VPN , your ISP and Government Agencies will not be able to spy on you, neither would they be able to track your online activity!
Poster:
Flic Story (1975) Remux BluRay 1080p DTS
Others:
Codec Name S. L. Size

 

Description:



IMDB

Code:


General
Complete name : Flic.Story.(1975).Remux.BluRay.1080p.DTS.[Borsalino].DE.srt
Format : SubRip
File size : 70.0 KiB

Text
Format : SubRip
Compression mode : Lossless

General
Complete name : Flic.Story.(1975).Remux.BluRay.1080p.DTS.[Borsalino].EN.srt
Format : SubRip
File size : 67.5 KiB

Text
Format : SubRip
Compression mode : Lossless

General
Complete name : Flic.Story.(1975).Remux.BluRay.1080p.DTS.[Borsalino].ES.srt
Format : SubRip
File size : 69.3 KiB

Text
Format : SubRip
Compression mode : Lossless

General
Complete name : Flic.Story.(1975).Remux.BluRay.1080p.DTS.[Borsalino].NL.srt
Format : SubRip
File size : 71.0 KiB

Text
Format : SubRip
Compression mode : Lossless

General
Complete name : Flic.Story.(1975).Remux.BluRay.1080p.DTS.[Borsalino].RO.srt
Format : SubRip
File size : 73.3 KiB

Text
Format : SubRip
Compression mode : Lossless

General
Complete name : Flic.Story.(1975).Remux.BluRay.1080p.DTS.[Borsalino].mkv
Format : Matroska
Format version : Version 4
File size : 18.7 GiB
Duration : 1 h 51 min
Overall bit rate mode : Variable
Overall bit rate : 24.0 Mb/s
Movie name : Flic.Story.(1975).Remux.BluRay.1080p.DTS.[Borsalino]
Writing application : mkvmerge v56.1.0 ('My Friend') 64-bit
Writing library : libebml v1.4.2 + libmatroska v1.6.4

Video
ID : 1
Format : AVC
Format/Info : Advanced Video Codec
Format profile : [email protected]
Format settings : CABAC / 2 Ref Frames
Format settings, CABAC : Yes
Format settings, Reference frames : 2 frames
Codec ID : V_MPEG4/ISO/AVC
Duration : 1 h 51 min
Bit rate mode : Variable
Bit rate : 23.0 Mb/s
Width : 1 920 pixels
Height : 1 080 pixels
Display aspect ratio : 16:9
Frame rate mode : Constant
Frame rate : 23.976 (24000/1001) FPS
Color space : YUV
Chroma subsampling : 4:2:0
Bit depth : 8 bits
Scan type : Progressive
Bits/(Pixel*Frame) : 0.462
Stream size : 17.9 GiB (96%)
Title : French
Language : French
Default : Yes
Forced : No

Audio
ID : 2
Format : DTS XLL
Format/Info : Digital Theater Systems
Commercial name : DTS-HD Master Audio
Codec ID : A_DTS
Duration : 1 h 51 min
Bit rate mode : Variable
Bit rate : 982 kb/s
Channel(s) : 2 channels
Channel layout : L R
Sampling rate : 48.0 kHz
Frame rate : 93.750 FPS (512 SPF)
Bit depth : 16 bits
Compression mode : Lossless
Stream size : 786 MiB (4%)
Title : French
Language : French
Default : No
Forced : No



Spoken language



Subtitles (srt files)
















Downloads: 10
Category: Movies/HD
Size: 18.7 GB
Show Files »
files
Added: 2021-06-04 11:06:29
Language: French
Title: Flic Story (Cop Story)
Rating: 62
Genres: CrimeDramaMysterySuspenseThrillerNeo-noir
Year: 1975
Summery: The film story depicts Emile Buisson, following the death of his wife and child, escaping from a psychiatric institution in 1947 and returning to Paris. Buisson, who three years later would become France's public enemy number one, begins a murderous rampage through the French capital.
Peers: Seeders : 0 , Leechers : 12
Tags: crime drama thriller 
Release name: Flic Story (1975) Remux BluRay 1080p DTS
Trackers:

udp://tracker.leechers-paradise.org:6969/announce

udp://tracker.coppersurfer.tk:6969/announce

udp://tracker.opentrackr.org:1337/announce

udp://tracker.zer0day.to:1337/announce

udp://eddie4.nl:6969/announce

udp://explodie.org:6969/announce

udp://9.rarbg.me:2780/announce

udp://9.rarbg.to:2730/announce

udp://9.rarbg.me:2890

udp://9.rarbg.to:2890

udp://open.stealth.si:80/announce

udp://tracker.tiny-vps.com:6969/announce

http://p4p.arenabg.ch:1337/announce

udp://46.4.109.148:6969/announce

udp://tracker.openbittorrent.com:80/announce





By using this site you agree to and accept our user agreement. If you havent read the user agreement please do so here