torrents rarbg
Catalog Top 10

RARBG
Home
Movies
XXX
TV Shows
Games
Music
Anime
Apps
Doc
Other
Non XXX

MasterChef (UK) The Professionals S15E10 (1280x720p HD, 50fps, soft Eng subs) =

Torrent:


MasterChef (UK) The Professionals S15E10 (1280x720p HD, 50fps, soft Eng subs) =
VPN:
Downloading torrents is getting riskier every day. Use a VPN to make yourself hidden while downloading torrents.
By using a VPN , your ISP and Government Agencies will not be able to spy on you, neither would they be able to track your online activity!
Description:

MasterChef (UK) The Professionals S15E10 (1280x720p HD, 50fps, soft Eng subs)

It's the last week of heats, and four more ambitious chefs set out to prove they have what it takes to win the title. In order to progress in the competition, they must impress in a daunting Skills Test and then cook two dishes of their own creation in the Signature Menu round. Only the chefs who can demonstrate the all-round skills, technique and flair of a future champion will make it through to the quarter-final. / / Two chefs are set a Skills Test by Marcus Wareing, who asks them to fillet a sea bream, steam one portion and serve it with an Asian-style broth and rice. Anna Haugh tests the skills of the other two chefs when she asks them to make beetroot tortellini with a goat's cheese and walnut filling, served with warm beetroot vinaigrette. / / Finally, the four chefs have one last chance to win over the judges when they each cook their two-course Signature Menu. They have one hour and 30 minutes to perfectly execute their tried and tested recipes for Anna, Marcus and Gregg. They must deliver on presentation, technique and taste if they want to secure their future in the competition. The two weakest contenders will be sent home.

First broadcast: 23 November 2022
Duration: 1 hour
Torrent dead? Request reseed at torrentgalaxy.org - or ask at elsonroa at tutanota.com

Media info:-
Format : MPEG-4
Format profile : Base Media
Codec ID : isom (isom/iso2/avc1/mp41)
File size : 2.12 GiB
Duration : 58 min 12 s
Overall bit rate mode : Variable
Overall bit rate : 5 210 kb/s

Video
ID : 1
Format : AVC
Format/Info : Advanced Video Codec
Format profile : [email protected]
Format settings : CABAC / 4 Ref Frames
Format settings, CABAC : Yes
Format settings, Reference frames : 4 frames
Codec ID : avc1
Codec ID/Info : Advanced Video Coding
Duration : 58 min 12 s
Bit rate mode : Variable
Bit rate : 5 072 kb/s
Maximum bit rate : 7 605 kb/s
Width : 1 280 pixels
Height : 720 pixels
Display aspect ratio : 16:9
Frame rate mode : Variable
Frame rate : 50.000 FPS
Minimum frame rate : 25.000 FPS
Maximum frame rate : 90 000.000 FPS
Color space : YUV
Chroma subsampling : 4:2:0
Bit depth : 8 bits
Scan type : Progressive
Bits/(Pixel*Frame) : 0.110
Stream size : 2.06 GiB (97%)
Color range : Limited
Color primaries : BT.709
Transfer characteristics : BT.709
Matrix coefficients : BT.709
Codec configuration box : avcC

Audio
ID : 2
Format : AAC LC
Format/Info : Advanced Audio Codec Low Complexity
Codec ID : mp4a-40-2
Duration : 58 min 12 s
Bit rate mode : Variable
Bit rate : 128 kb/s
Maximum bit rate : 132 kb/s
Channel(s) : 2 channels
Channel layout : L R
Sampling rate : 48.0 kHz
Frame rate : 46.875 FPS (1024 SPF)
Compression mode : Lossy
Stream size : 53.3 MiB (2%)
Language : English

Downloads: 91
Category: TV/HD
Size: 2.1 GB
Show Files »
files
Added: 2022-11-24 10:04:43
Language: English
Peers: Seeders : 18 , Leechers : 3
Release name: MasterChef (UK) The Professionals S15E10 (1280x720p HD, 50fps, soft Eng subs) =
Trackers:

udp://open.stealth.si:80/announce

udp://exodus.desync.com:6969/announce

udp://tracker.cyberia.is:6969/announce

udp://tracker.opentrackr.org:1337/announce

udp://tracker.torrent.eu.org:451/announce

udp://explodie.org:6969/announce

udp://tracker.birkenwald.de:6969/announce

udp://tracker.moeking.me:6969/announce

udp://ipv4.tracker.harry.lu:80/announce

udp://9.rarbg.me:2970/announce

https://inferno.demonoid.is/announce





By using this site you agree to and accept our user agreement. If you havent read the user agreement please do so here