torrents rarbg
Catalog Top 10

RARBG
Home
Movies
XXX
TV Shows
Games
Music
Anime
Apps
Doc
Other
Non XXX

Patterns.of.Evidence.The.Red.Sea.Miracle.2020.1080p.WEBRip.x265-RARBG

Torrent:


Patterns.of.Evidence.The.Red.Sea.Miracle.2020.1080p.WEBRip.x265-RARBG
VPN:
Downloading torrents is getting riskier every day. Use a VPN to make yourself hidden while downloading torrents.
By using a VPN , your ISP and Government Agencies will not be able to spy on you, neither would they be able to track your online activity!
Poster:
Patterns.of.Evidence.The.Red.Sea.Miracle.2020.1080p.WEBRip.x265-RARBG
Others:
Codec Name S. L. Size

 

Description:



One of the greatest miracles in the Bible is Moses and the Israelites trapped at the sea by Pharaoh's army, when God miraculously parts the waters, but is there any evidence that it really happened, and if so, where?


https://www.imdb.com/title/tt11661666/

https://www.reddit.com/user/ConspiracyTorrents/posts/






Quote:

General
Complete name : Z:\Patterns.of.Evidence.The.Red.Sea.Miracle.2020.1080p.WEBRip.x265-RARBG\Patterns.of.Evidence.The.Red.Sea.Miracle.2020.1080p.WEBRip.x265-RARBG.mp4
Format : MPEG-4
Format profile : Base Media
Codec ID : isom (isom/iso2/mp41)
File size : 1.77 GiB
Duration : 1 h 53 min
Overall bit rate : 2 232 kb/s
Movie name : Patterns.of.Evidence.The.Red.Sea.Miracle.2020.1080p.WEBRip.x265-RARBG
Encoded date : UTC 2022-05-10 12:05:25
Tagged date : UTC 2022-05-10 12:05:25
Writing application : Lavf58.20.100
Comment : Patterns.of.Evidence.The.Red.Sea.Miracle.2020.1080p.WEBRip.x265-RARBG

Video
ID : 1
Format : HEVC
Format/Info : High Efficiency Video Coding
Format profile : Main [email protected]@Main
Codec ID : hev1
Codec ID/Info : High Efficiency Video Coding
Duration : 1 h 53 min
Bit rate : 2 001 kb/s
Width : 1 920 pixels
Height : 1 080 pixels
Display aspect ratio : 16:9
Frame rate mode : Constant
Frame rate : 23.976 (24000/1001) FPS
Color space : YUV
Chroma subsampling : 4:2:0
Bit depth : 10 bits
Bits/(Pixel*Frame) : 0.040
Stream size : 1.59 GiB (90%)
Writing library : x265 3.3+4-rarbg-30eb4de83092:[Linux][GCC 8.3.1][64 bit] 10bit
Encoding settings : cpuid=1111039 / frame-threads=4 / wpp / no-pmode / no-pme / no-psnr / no-ssim / log-level=2 / input-csp=1 / input-res=1920x1080 / interlace=0 / total-frames=0 / level-idc=0 / high-tier=1 / uhd-bd=0 / ref=4 / no-allow-non-conformance / no-repeat-headers / annexb / no-aud / no-hrd / info / hash=0 / no-temporal-layers / open-gop / min-keyint=23 / keyint=250 / gop-lookahead=0 / bframes=4 / b-adapt=2 / b-pyramid / bframe-bias=0 / rc-lookahead=25 / lookahead-slices=4 / scenecut=40 / hist-scenecut=0 / radl=0 / no-splice / no-intra-refresh / ctu=64 / min-cu-size=8 / rect / no-amp / max-tu-size=32 / tu-inter-depth=1 / tu-intra-depth=1 / limit-tu=0 / rdoq-level=2 / dynamic-rd=0.00 / no-ssim-rd / signhide / no-tskip / nr-intra=0 / nr-inter=0 / no-constrained-intra / strong-intra-smoothing / max-merge=3 / limit-refs=3 / limit-modes / me=3 / subme=3 / merange=57 / temporal-mvp / no-frame-dup / no-hme / weightp / no-weightb / no-analyze-src-pics / deblock=0:0 / no-sao / no-sao-non-deblock / rd=4 / selective-sao=0 / no-early-skip / rskip / no-fast-intra / no-tskip-fast / no-cu-lossless / no-b-intra / no-splitrd-skip / rdpenalty=0 / psy-rd=2.00 / psy-rdoq=1.00 / no-rd-refine / no-lossless / cbqpoffs=0 / crqpoffs=0 / rc=abr / bitrate=2000 / qcomp=0.60 / qpstep=4 / stats-write=0 / stats-read=2 / cplxblur=20.0 / qblur=0.5 / ipratio=1.40 / pbratio=1.30 / aq-mode=3 / aq-strength=1.00 / cutree / zone-count=0 / no-strict-cbr / qg-size=32 / no-rc-grain / qpmax=69 / qpmin=0 / no-const-vbv / sar=1 / overscan=0 / videoformat=5 / range=0 / colorprim=2 / transfer=2 / colormatrix=2 / chromaloc=0 / display-window=0 / cll=0,0 / min-luma=0 / max-luma=1023 / log2-max-poc-lsb=8 / vui-timing-info / vui-hrd-info / slices=1 / no-opt-qp-pps / no-opt-ref-list-length-pps / no-multi-pass-opt-rps / scenecut-bias=0.05 / hist-threshold=0.01 / no-opt-cu-delta-qp / no-aq-motion / no-hdr10 / no-hdr10-opt / no-dhdr10-opt / no-idr-recovery-sei / analysis-reuse-level=0 / analysis-save-reuse-level=0 / analysis-load-reuse-level=0 / scale-factor=0 / refine-intra=0 / refine-inter=0 / refine-mv=1 / refine-ctu-distortion=0 / no-limit-sao / ctu-info=0 / no-lowpass-dct / refine-analysis-type=0 / copy-pic=1 / max-ausize-factor=1.0 / no-dynamic-refine / no-single-sei / no-hevc-aq / no-svt / no-field / qp-adaptation-range=1.00 / no-scenecut-aware-qpconformance-window-offsets / right=0 / bottom=0
Encoded date : UTC 2022-05-10 12:05:25
Tagged date : UTC 2022-05-10 12:05:25
Codec configuration box : hvcC

Audio
ID : 2
Format : AAC LC
Format/Info : Advanced Audio Codec Low Complexity
Codec ID : mp4a-40-2
Duration : 1 h 53 min
Bit rate mode : Constant
Bit rate : 224 kb/s
Channel(s) : 2 channels
Channel layout : L R
Sampling rate : 48.0 kHz
Frame rate : 46.875 FPS (1024 SPF)
Compression mode : Lossy
Stream size : 182 MiB (10%)
Language : English
Default : Yes
Alternate group : 1
Encoded date : UTC 2022-05-10 12:05:25
Tagged date : UTC 2022-05-10 12:05:25

Downloads: 31
Category: Movies/HD
Size: 1.8 GB
Show Files »
files
Added: 2022-05-14 10:02:07
Language: English
Title: Patterns of Evidence: The Red Sea M...
Rating: 0
Genres: Documentary
Year: 2020
Summery: THE RED SEA MIRACLE 2 continues to raise big questions about biblical miracles. Introducing the second film in a new two-part series by Patterns of Evidence’s award-winning filmmaker, Timothy Mahoney. How could thousands of feet of water be parted at the Red Sea? Or was the sea merely parted by the act of wind in nature, through a shallow Egyptian lake? Mahoney investigates these locations to see if any have a pattern of evidence matching the Bible. People of faith will be inspired and skeptics will have much to think about as Mahoney reveals two decades of documentary research including if divers found the remains of Pharaoh's army on the seafloor. This cinematic journey leads him to inquire… “Do miracles still happen today?”
Peers: Seeders : 7 , Leechers : 0
Release name: Patterns.of.Evidence.The.Red.Sea.Miracle.2020.1080p.WEBRip.x265-RARBG
Trackers:

udp://tracker.tiny-vps.com:6969/announce

udp://fasttracker.foreverpirates.co:6969/announce

udp://tracker.opentrackr.org:1337/announce

udp://explodie.org:6969/announce

udp://open.stealth.si:80/announce

udp://tracker.cyberia.is:6969/announce

udp://ipv4.tracker.harry.lu:80/announce

udp://tracker.uw0.xyz:6969/announce

udp://tracker.dler.org:6969/announce

udp://9.rarbg.to:2710/announce

udp://fe.dealclub.de:6969/announce

udp://code2chicken.nl:6969/announce

udp://tracker.0x.tf:6969/announce

http://p2p.arenabg.ch:2710/2fe5d3a4213ef551d6a111e0aae91871/announce

http://p2p.arenabg.com:2710/2fe5d3a4213ef551d6a111e0aae91871/announce





By using this site you agree to and accept our user agreement. If you havent read the user agreement please do so here