torrents rarbg
Catalog Top 10

RARBG
Home
Movies
XXX
TV Shows
Games
Music
Anime
Apps
Doc
Other
Non XXX

Star.Wars.Andor.S01E12.Episodio.Dodici.1080p.DSNP.WEBRip.HEVC.ITA.ENG.DD5.1.x265-BlackBit.mkv

Torrent:


Star.Wars.Andor.S01E12.Episodio.Dodici.1080p.DSNP.WEBRip.HEVC.ITA.ENG.DD5.1.x265-BlackBit.mkv
VPN:
Downloading torrents is getting riskier every day. Use a VPN to make yourself hidden while downloading torrents.
By using a VPN , your ISP and Government Agencies will not be able to spy on you, neither would they be able to track your online activity!
Description:



DATI - TRAMA

Genere Fantascienza , Thriller , Azione , Avventura , Drammatico
Attori Diego Luna, Anton Saunders, Adria Arjona, Stellan Skarsgård, Denise Gough, Fiona Shaw, Genevieve O'Reilly, Alex Lawther, Robert Emms, Kyle Soller
Stagioni 1
Episodi 12
Stato In preparazione
Prima messa in onda italiana Distribuita per la prima volta in Italia il 21 settembre 2022 dalla piattaforma streaming Disney+
Prima messa in onda originale 21 Settembre 2022
Paese USA


La serie racconterà la storia della nascente ribellione contro l'Impero e di come persone e pianeti siano stati coinvolti. È un’epoca piena di pericoli, inganni e intrighi in cui Cassian Andor intraprenderà il cammino destinato a trasformarlo in un eroe ribelle.

IMMAGINI





REPORT

General
Unique ID : 48157382323262436225960482205503051849 (0x243AC64366D291AA84460E18657BD849)
Complete name : C:\Users\Administrator\Videos\Andor S01\Star.Wars.Andor.S01E01.Episodio.Uno.1080p.DSNP.WEBRip.HEVC.ITA.ENG.DDP5.1.x265-BlackBit.mkv
Format : Matroska
Format version : Version 4
File size : 1.09 GiB
Duration : 39 min 10 s
Overall bit rate : 3 997 kb/s
Encoded date : UTC 2022-09-21 08:48:41
Writing application : mkvmerge v70.0.0 ('Caught A Lite Sneeze') 64-bit
Writing library : libebml v1.4.2 + libmatroska v1.6.4

Video
ID : 1
Format : HEVC
Format/Info : High Efficiency Video Coding
Format profile : Main [email protected]@Main
Codec ID : V_MPEGH/ISO/HEVC
Duration : 39 min 10 s
Bit rate : 2 968 kb/s
Width : 1 920 pixels
Height : 1 080 pixels
Display aspect ratio : 16:9
Frame rate mode : Constant
Frame rate : 24.000 FPS
Color space : YUV
Chroma subsampling : 4:2:0
Bit depth : 10 bits
Bits/(Pixel*Frame) : 0.060
Stream size : 832 MiB (74%)
Writing library : x265 3.5+8-57e817329:[Windows][GCC 10.2.0][64 bit] 10bit
Encoding settings : cpuid=1111039 / frame-threads=3 / numa-pools=8 / wpp / no-pmode / no-pme / no-psnr / no-ssim / log-level=2 / input-csp=1 / input-res=1920x1080 / interlace=0 / total-frames=56414 / level-idc=0 / high-tier=1 / uhd-bd=0 / ref=3 / no-allow-non-conformance / no-repeat-headers / annexb / no-aud / no-hrd / info / hash=0 / no-temporal-layers / open-gop / min-keyint=23 / keyint=250 / gop-lookahead=0 / bframes=4 / b-adapt=2 / b-pyramid / bframe-bias=0 / rc-lookahead=20 / lookahead-slices=6 / scenecut=40 / hist-scenecut=0 / radl=0 / no-splice / no-intra-refresh / ctu=64 / min-cu-size=8 / no-rect / no-amp / max-tu-size=32 / tu-inter-depth=1 / tu-intra-depth=1 / limit-tu=0 / rdoq-level=0 / dynamic-rd=0.00 / no-ssim-rd / signhide / no-tskip / nr-intra=0 / nr-inter=0 / no-constrained-intra / strong-intra-smoothing / max-merge=3 / limit-refs=1 / no-limit-modes / me=1 / subme=2 / merange=57 / temporal-mvp / no-frame-dup / no-hme / weightp / no-weightb / no-analyze-src-pics / deblock=0:0 / sao / no-sao-non-deblock / rd=3 / selective-sao=4 / early-skip / rskip / no-fast-intra / no-tskip-fast / no-cu-lossless / b-intra / no-splitrd-skip / rdpenalty=0 / psy-rd=2.00 / psy-rdoq=0.00 / no-rd-refine / no-lossless / cbqpoffs=0 / crqpoffs=0 / rc=crf / crf=17.4 / qcomp=0.60 / qpstep=4 / stats-write=0 / stats-read=0 / ipratio=1.40 / pbratio=1.30 / aq-mode=2 / aq-strength=1.00 / cutree / zone-count=0 / no-strict-cbr / qg-size=32 / no-rc-grain / qpmax=69 / qpmin=0 / no-const-vbv / sar=0 / overscan=0 / videoformat=5 / range=0 / colorprim=2 / transfer=2 / colormatrix=2 / chromaloc=0 / display-window=0 / cll=0,0 / min-luma=0 / max-luma=1023 / log2-max-poc-lsb=8 / vui-timing-info / vui-hrd-info / slices=1 / no-opt-qp-pps / no-opt-ref-list-length-pps / no-multi-pass-opt-rps / scenecut-bias=0.05 / hist-threshold=0.03 / no-opt-cu-delta-qp / no-aq-motion / no-hdr10 / no-hdr10-opt / no-dhdr10-opt / no-idr-recovery-sei / analysis-reuse-level=0 / analysis-save-reuse-level=0 / analysis-load-reuse-level=0 / scale-factor=0 / refine-intra=0 / refine-inter=0 / refine-mv=1 / refine-ctu-distortion=0 / no-limit-sao / ctu-info=0 / no-lowpass-dct / refine-analysis-type=0 / copy-pic=1 / max-ausize-factor=1.0 / no-dynamic-refine / no-single-sei / no-hevc-aq / no-svt / no-field / qp-adaptation-range=1.00 / scenecut-aware-qp=0conformance-window-offsets / right=0 / bottom=0 / decoder-max-rate=0 / no-vbv-live-multi-pass
Default : Yes
Forced : Yes

Audio #1
ID : 2
Format : E-AC-3
Format/Info : Enhanced AC-3
Commercial name : Dolby Digital Plus
Codec ID : A_EAC3
Duration : 39 min 10 s
Bit rate mode : Constant
Bit rate : 256 kb/s
Channel(s) : 6 channels
Channel layout : L R C LFE Ls Rs
Sampling rate : 48.0 kHz
Frame rate : 31.250 FPS (1536 SPF)
Compression mode : Lossy
Delay relative to video : 10 ms
Stream size : 71.7 MiB (6%)
Language : Italian
Service kind : Complete Main
Default : Yes
Forced : Yes

Audio #2
ID : 3
Format : E-AC-3 JOC
Format/Info : Enhanced AC-3 with Joint Object Coding
Commercial name : Dolby Digital Plus with Dolby Atmos
Codec ID : A_EAC3
Duration : 39 min 10 s
Bit rate mode : Constant
Bit rate : 768 kb/s
Channel(s) : 6 channels
Channel layout : L R C LFE Ls Rs
Sampling rate : 48.0 kHz
Frame rate : 31.250 FPS (1536 SPF)
Compression mode : Lossy
Stream size : 215 MiB (19%)
Language : English
Service kind : Complete Main
Default : No
Forced : No
Complexity index : 16
Number of dynamic objects : 15
Bed channel count : 1 channel
Bed channel configuration : LFE

Text #1
ID : 4
Format : UTF-8
Codec ID : S_TEXT/UTF8
Codec ID/Info : UTF-8 Plain Text
Duration : 15 min 50 s
Bit rate : 1 b/s
Frame rate : 0.004 FPS
Count of elements : 4
Stream size : 187 Bytes (0%)
Language : Italian
Default : Yes
Forced : Yes

Text #2
ID : 5
Format : UTF-8
Codec ID : S_TEXT/UTF8
Codec ID/Info : UTF-8 Plain Text
Duration : 37 min 31 s
Bit rate : 52 b/s
Frame rate : 0.199 FPS
Count of elements : 448
Stream size : 14.5 KiB (0%)
Language : Italian
Default : No
Forced : No

Text #3
ID : 6
Format : UTF-8
Codec ID : S_TEXT/UTF8
Codec ID/Info : UTF-8 Plain Text
Duration : 33 min 7 s
Bit rate : 59 b/s
Frame rate : 0.223 FPS
Count of elements : 444
Stream size : 14.5 KiB (0%)
Language : English
Default : No
Forced : No

Text #4
ID : 7
Format : UTF-8
Codec ID : S_TEXT/UTF8
Codec ID/Info : UTF-8 Plain Text
Duration : 35 min 25 s
Bit rate : 63 b/s
Frame rate : 0.248 FPS
Count of elements : 527
Stream size : 16.4 KiB (0%)
Title : SDH
Language : English
Default : No
Forced : No

Text #5
ID : 8
Format : UTF-8
Codec ID : S_TEXT/UTF8
Codec ID/Info : UTF-8 Plain Text
Duration : 37 min 31 s
Bit rate : 47 b/s
Frame rate : 0.198 FPS
Count of elements : 445
Stream size : 13.0 KiB (0%)
Language : Czech
Default : No
Forced : No

Text #6
ID : 9
Format : UTF-8
Codec ID : S_TEXT/UTF8
Codec ID/Info : UTF-8 Plain Text
Duration : 37 min 31 s
Bit rate : 49 b/s
Frame rate : 0.141 FPS
Count of elements : 318
Stream size : 13.7 KiB (0%)
Language : Danish
Default : No
Forced : No

Text #7
ID : 10
Format : UTF-8
Codec ID : S_TEXT/UTF8
Codec ID/Info : UTF-8 Plain Text
Duration : 37 min 32 s
Bit rate : 50 b/s
Frame rate : 0.206 FPS
Count of elements : 464
Stream size : 13.9 KiB (0%)
Language : German
Default : No
Forced : No

Text #8
ID : 11
Format : UTF-8
Codec ID : S_TEXT/UTF8
Codec ID/Info : UTF-8 Plain Text
Duration : 37 min 31 s
Bit rate : 88 b/s
Frame rate : 0.199 FPS
Count of elements : 447
Stream size : 24.2 KiB (0%)
Language : Greek
Default : No
Forced : No

Text #9
ID : 12
Format : UTF-8
Codec ID : S_TEXT/UTF8
Codec ID/Info : UTF-8 Plain Text
Duration : 37 min 31 s
Bit rate : 49 b/s
Frame rate : 0.199 FPS
Count of elements : 447
Stream size : 13.7 KiB (0%)
Title : Spanish (Latin America)
Language : Spanish
Default : No
Forced : No

Text #10
ID : 13
Format : UTF-8
Codec ID : S_TEXT/UTF8
Codec ID/Info : UTF-8 Plain Text
Duration : 37 min 31 s
Bit rate : 50 b/s
Frame rate : 0.199 FPS
Count of elements : 448
Stream size : 13.8 KiB (0%)
Title : Spanish (Spain)
Language : Spanish
Default : No
Forced : No

Text #11
ID : 14
Format : UTF-8
Codec ID : S_TEXT/UTF8
Codec ID/Info : UTF-8 Plain Text
Duration : 37 min 31 s
Bit rate : 50 b/s
Frame rate : 0.198 FPS
Count of elements : 446
Stream size : 13.9 KiB (0%)
Language : Finnish
Default : No
Forced : No

Text #12
ID : 15
Format : UTF-8
Codec ID : S_TEXT/UTF8
Codec ID/Info : UTF-8 Plain Text
Duration : 33 min 5 s
Bit rate : 52 b/s
Frame rate : 0.221 FPS
Count of elements : 438
Stream size : 12.6 KiB (0%)
Title : French (Canada)
Language : French
Default : No
Forced : No

Text #13
ID : 16
Format : UTF-8
Codec ID : S_TEXT/UTF8
Codec ID/Info : UTF-8 Plain Text
Duration : 37 min 32 s
Bit rate : 46 b/s
Frame rate : 0.195 FPS
Count of elements : 439
Stream size : 12.7 KiB (0%)
Title : French (France)
Language : French
Default : No
Forced : No

Text #14
ID : 17
Format : UTF-8
Codec ID : S_TEXT/UTF8
Codec ID/Info : UTF-8 Plain Text
Duration : 37 min 31 s
Bit rate : 48 b/s
Frame rate : 0.199 FPS
Count of elements : 447
Stream size : 13.2 KiB (0%)
Language : Hungarian
Default : No
Forced : No

Text #15
ID : 18
Format : UTF-8
Codec ID : S_TEXT/UTF8
Codec ID/Info : UTF-8 Plain Text
Duration : 38 min 44 s
Bit rate : 36 b/s
Frame rate : 0.197 FPS
Count of elements : 458
Stream size : 10.5 KiB (0%)
Language : Japanese
Default : No
Forced : No

Text #16
ID : 19
Format : UTF-8
Codec ID : S_TEXT/UTF8
Codec ID/Info : UTF-8 Plain Text
Duration : 38 min 44 s
Bit rate : 53 b/s
Frame rate : 0.193 FPS
Count of elements : 449
Stream size : 15.2 KiB (0%)
Language : Korean
Default : No
Forced : No

Text #17
ID : 20
Format : UTF-8
Codec ID : S_TEXT/UTF8
Codec ID/Info : UTF-8 Plain Text
Duration : 37 min 31 s
Bit rate : 48 b/s
Frame rate : 0.164 FPS
Count of elements : 369
Stream size : 13.2 KiB (0%)
Language : Dutch
Default : No
Forced : No

Text #18
ID : 21
Format : UTF-8
Codec ID : S_TEXT/UTF8
Codec ID/Info : UTF-8 Plain Text
Duration : 37 min 31 s
Bit rate : 45 b/s
Frame rate : 0.199 FPS
Count of elements : 448
Stream size : 12.6 KiB (0%)
Language : Norwegian
Default : No
Forced : No

Text #19
ID : 22
Format : UTF-8
Codec ID : S_TEXT/UTF8
Codec ID/Info : UTF-8 Plain Text
Duration : 38 min 44 s
Bit rate : 48 b/s
Frame rate : 0.191 FPS
Count of elements : 443
Stream size : 13.9 KiB (0%)
Language : Polish
Default : No
Forced : No

Text #20
ID : 23
Format : UTF-8
Codec ID : S_TEXT/UTF8
Codec ID/Info : UTF-8 Plain Text
Duration : 37 min 31 s
Bit rate : 55 b/s
Frame rate : 0.199 FPS
Count of elements : 447
Stream size : 15.1 KiB (0%)
Title : Portuguese (Brazil)
Language : Portuguese
Default : No
Forced : No

Text #21
ID : 24
Format : UTF-8
Codec ID : S_TEXT/UTF8
Codec ID/Info : UTF-8 Plain Text
Duration : 37 min 31 s
Bit rate : 48 b/s
Frame rate : 0.199 FPS
Count of elements : 448
Stream size : 13.3 KiB (0%)
Title : Portuguese (Portugal)
Language : Portuguese
Default : No
Forced : No

Text #22
ID : 25
Format : UTF-8
Codec ID : S_TEXT/UTF8
Codec ID/Info : UTF-8 Plain Text
Duration : 38 min 44 s
Bit rate : 50 b/s
Frame rate : 0.192 FPS
Count of elements : 447
Stream size : 14.4 KiB (0%)
Language : Romanian
Default : No
Forced : No

Text #23
ID : 26
Format : UTF-8
Codec ID : S_TEXT/UTF8
Codec ID/Info : UTF-8 Plain Text
Duration : 37 min 31 s
Bit rate : 49 b/s
Frame rate : 0.199 FPS
Count of elements : 448
Stream size : 13.6 KiB (0%)
Language : Slovak
Default : No
Forced : No

Text #24
ID : 27
Format : UTF-8
Codec ID : S_TEXT/UTF8
Codec ID/Info : UTF-8 Plain Text
Duration : 37 min 31 s
Bit rate : 45 b/s
Frame rate : 0.129 FPS
Count of elements : 291
Stream size : 12.5 KiB (0%)
Language : Swedish
Default : No
Forced : No

Text #25
ID : 28
Format : UTF-8
Codec ID : S_TEXT/UTF8
Codec ID/Info : UTF-8 Plain Text
Duration : 38 min 44 s
Bit rate : 50 b/s
Frame rate : 0.193 FPS
Count of elements : 448
Stream size : 14.3 KiB (0%)
Language : Turkish
Default : No
Forced : No

Text #26
ID : 29
Format : UTF-8
Codec ID : S_TEXT/UTF8
Codec ID/Info : UTF-8 Plain Text
Duration : 38 min 44 s
Bit rate : 41 b/s
Frame rate : 0.194 FPS
Count of elements : 450
Stream size : 11.9 KiB (0%)
Title : Chinese (Hong Kong SAR China)
Language : Chinese
Default : No
Forced : No

Text #27
ID : 30
Format : UTF-8
Codec ID : S_TEXT/UTF8
Codec ID/Info : UTF-8 Plain Text
Duration : 38 min 44 s
Bit rate : 41 b/s
Frame rate : 0.194 FPS
Count of elements : 450
Stream size : 11.8 KiB (0%)
Title : Chinese (Simplified)
Language : Chinese
Default : No
Forced : No

Text #28
ID : 31
Format : UTF-8
Codec ID : S_TEXT/UTF8
Codec ID/Info : UTF-8 Plain Text
Duration : 38 min 44 s
Bit rate : 36 b/s
Frame rate : 0.193 FPS
Count of elements : 449
Stream size : 10.2 KiB (0%)
Title : Chinese (Traditional)
Language : Chinese
Default : No
Forced : No

GOOD DOWNLOAD



Downloads: 98
Category: TV/HEVC/x265
Size: 1.5 GB
Show Files »
files
Added: 2022-11-24 10:05:02
Language: English
Peers: Seeders : 21 , Leechers : 17
Release name: Star.Wars.Andor.S01E12.Episodio.Dodici.1080p.DSNP.WEBRip.HEVC.ITA.ENG.DD5.1.x265-BlackBit.mkv
Trackers:

udp://tracker.opentrackr.org:1337/announce

udp://tracker.torrent.eu.org:451/announce

udp://open.stealth.si:80/announce

http://tracker.bt4g.com:2095/announce

udp://tracker.openbittorrent.com:80/announce

udp://tracker.tiny-vps.com:6969/announce

udp://p4p.arenabg.com:1337/announce

udp://explodie.org:6969/announce

udp://exodus.desync.com:6969/announce

udp://9.rarbg.me:2720/announce

udp://9.rarbg.to:2720/announce





By using this site you agree to and accept our user agreement. If you havent read the user agreement please do so here