torrents rarbg
Catalog Top 10

RARBG
Home
Movies
XXX
TV Shows
Games
Music
Anime
Apps
Doc
Other
Non XXX

Star.Wars.Andor.S01E12.Episodio.Dodici.DSNP.WEBRip.ITA.ENG.x264-BlackBit.mkv

Torrent:


Star.Wars.Andor.S01E12.Episodio.Dodici.DSNP.WEBRip.ITA.ENG.x264-BlackBit.mkv
VPN:
Downloading torrents is getting riskier every day. Use a VPN to make yourself hidden while downloading torrents.
By using a VPN , your ISP and Government Agencies will not be able to spy on you, neither would they be able to track your online activity!
Description:



DATI - TRAMA

Genere Fantascienza , Thriller , Azione , Avventura , Drammatico
Attori Diego Luna, Anton Saunders, Adria Arjona, Stellan Skarsgård, Denise Gough, Fiona Shaw, Genevieve O'Reilly, Alex Lawther, Robert Emms, Kyle Soller
Stagioni 1
Episodi 12
Stato In preparazione
Prima messa in onda italiana Distribuita per la prima volta in Italia il 21 settembre 2022 dalla piattaforma streaming Disney+
Prima messa in onda originale 21 Settembre 2022
Paese USA


La serie racconterà la storia della nascente ribellione contro l'Impero e di come persone e pianeti siano stati coinvolti. È un’epoca piena di pericoli, inganni e intrighi in cui Cassian Andor intraprenderà il cammino destinato a trasformarlo in un eroe ribelle.

IMMAGINI





REPORT

General
Unique ID : 244388943069879298341520275663313459075 (0xB7DB992DB2A1C406206E3638C6885783)
Complete name : C:\Users\Administrator\Videos\Andor S01\Star.Wars.Andor.S01E01.Episodio.Uno.DSNP.WEBRip.ITA.ENG.x264-BlackBit.mkv
Format : Matroska
Format version : Version 4
File size : 302 MiB
Duration : 39 min 10 s
Overall bit rate : 1 078 kb/s
Encoded date : UTC 2022-09-21 09:44:53
Writing application : mkvmerge v70.0.0 ('Caught A Lite Sneeze') 64-bit
Writing library : libebml v1.4.2 + libmatroska v1.6.4

Video
ID : 1
Format : AVC
Format/Info : Advanced Video Codec
Format profile : [email protected]
Format settings : CABAC / 16 Ref Frames
Format settings, CABAC : Yes
Format settings, Reference : 16 frames
Codec ID : V_MPEG4/ISO/AVC
Duration : 39 min 10 s
Bit rate : 704 kb/s
Width : 768 pixels
Height : 320 pixels
Display aspect ratio : 2.40:1
Frame rate mode : Constant
Frame rate : 24.000 FPS
Color space : YUV
Chroma subsampling : 4:2:0
Bit depth : 8 bits
Scan type : Progressive
Bits/(Pixel*Frame) : 0.119
Stream size : 197 MiB (65%)
Writing library : x264 core 157 r2969 d4099dd
Encoding settings : cabac=1 / ref=16 / deblock=1:0:0 / analyse=0x3:0x133 / me=umh / subme=10 / psy=1 / psy_rd=1.00:0.00 / mixed_ref=1 / me_range=24 / chroma_me=1 / trellis=2 / 8x8dct=1 / cqm=0 / deadzone=21,11 / fast_pskip=1 / chroma_qp_offset=-2 / threads=10 / lookahead_threads=1 / sliced_threads=0 / nr=0 / decimate=1 / interlaced=0 / bluray_compat=0 / constrained_intra=0 / bframes=8 / b_pyramid=2 / b_adapt=2 / b_bias=0 / direct=3 / weightb=1 / open_gop=0 / weightp=2 / keyint=240 / keyint_min=24 / scenecut=40 / intra_refresh=0 / rc_lookahead=60 / rc=crf / mbtree=1 / crf=17.7 / qcomp=0.60 / qpmin=0 / qpmax=69 / qpstep=4 / vbv_maxrate=17500 / vbv_bufsize=17500 / crf_max=0.0 / nal_hrd=none / filler=0 / ip_ratio=1.40 / aq=1:1.00
Default : Yes
Forced : Yes
Color range : Limited
Matrix coefficients : BT.709

Audio #1
ID : 2
Format : AAC LC
Format/Info : Advanced Audio Codec Low Complexity
Codec ID : A_AAC-2
Duration : 39 min 10 s
Bit rate : 182 kb/s
Channel(s) : 2 channels
Channel layout : L R
Sampling rate : 48.0 kHz
Frame rate : 46.875 FPS (1024 SPF)
Compression mode : Lossy
Delay relative to video : 9 ms
Stream size : 51.0 MiB (17%)
Language : Italian
Default : Yes
Forced : Yes

Audio #2
ID : 3
Format : AAC LC
Format/Info : Advanced Audio Codec Low Complexity
Codec ID : A_AAC-2
Duration : 39 min 10 s
Bit rate : 192 kb/s
Channel(s) : 2 channels
Channel layout : L R
Sampling rate : 48.0 kHz
Frame rate : 46.875 FPS (1024 SPF)
Compression mode : Lossy
Delay relative to video : 9 ms
Stream size : 52.9 MiB (18%)
Language : English
Default : No
Forced : No

Text #1
ID : 4
Format : UTF-8
Codec ID : S_TEXT/UTF8
Codec ID/Info : UTF-8 Plain Text
Duration : 15 min 50 s
Bit rate : 1 b/s
Frame rate : 0.004 FPS
Count of elements : 4
Stream size : 187 Bytes (0%)
Language : Italian
Default : Yes
Forced : Yes

Text #2
ID : 5
Format : UTF-8
Codec ID : S_TEXT/UTF8
Codec ID/Info : UTF-8 Plain Text
Duration : 37 min 31 s
Bit rate : 52 b/s
Frame rate : 0.199 FPS
Count of elements : 448
Stream size : 14.5 KiB (0%)
Language : Italian
Default : No
Forced : No

Text #3
ID : 6
Format : UTF-8
Codec ID : S_TEXT/UTF8
Codec ID/Info : UTF-8 Plain Text
Duration : 33 min 7 s
Bit rate : 59 b/s
Frame rate : 0.223 FPS
Count of elements : 444
Stream size : 14.5 KiB (0%)
Language : English
Default : No
Forced : No

Text #4
ID : 7
Format : UTF-8
Codec ID : S_TEXT/UTF8
Codec ID/Info : UTF-8 Plain Text
Duration : 35 min 25 s
Bit rate : 63 b/s
Frame rate : 0.248 FPS
Count of elements : 527
Stream size : 16.4 KiB (0%)
Title : SDH
Language : English
Default : No
Forced : No

GOOD DOWNLOAD



Downloads: 60
Category: TV/SD
Size: 396.3 MB
Show Files »
files
Added: 2022-11-24 10:05:01
Language: English
Peers: Seeders : 28 , Leechers : 6
Release name: Star.Wars.Andor.S01E12.Episodio.Dodici.DSNP.WEBRip.ITA.ENG.x264-BlackBit.mkv
Trackers:

udp://tracker.opentrackr.org:1337/announce

udp://tracker.torrent.eu.org:451/announce

udp://open.stealth.si:80/announce

http://tracker.bt4g.com:2095/announce

udp://tracker.openbittorrent.com:80/announce

udp://tracker.tiny-vps.com:6969/announce

udp://p4p.arenabg.com:1337/announce

udp://explodie.org:6969/announce

udp://exodus.desync.com:6969/announce

udp://9.rarbg.me:2720/announce

udp://9.rarbg.to:2720/announce





By using this site you agree to and accept our user agreement. If you havent read the user agreement please do so here