torrents rarbg
Catalog Top 10

RARBG
Home
Movies
XXX
TV Shows
Games
Music
Anime
Apps
Doc
Other
Non XXX

Stars.at.Noon.2022.PROPER.1080p.WEBRip.x264-RARBG

Torrent:


Stars.at.Noon.2022.PROPER.1080p.WEBRip.x264-RARBG
VPN:
Downloading torrents is getting riskier every day. Use a VPN to make yourself hidden while downloading torrents.
By using a VPN , your ISP and Government Agencies will not be able to spy on you, neither would they be able to track your online activity!
Poster:
Stars.at.Noon.2022.PROPER.1080p.WEBRip.x264-RARBG
Others:
Codec Name S. L. Size

 

Description:

Release Name: Stars.at.Noon.2022.PROPER.1080p.WEBRip.x264-RARBG



IMDB: https://www.imdb.com/title/tt10354106/

Subtitle: English (srt)

Plot: A young American journalist stranded in present-day Nicaragua falls for an enigmatic Englishman who seems like her best chance of escape. She soon realizes, that he may be in even greater danger than she is.

Complete name               : Stars.at.Noon.2022.PROPER.1080p.WEBRip.x264-RARBG.mp4
Video
ID : 1
Format : AVC
Format/Info : Advanced Video Codec
Format profile : [email protected]
Format settings : CABAC / 4 Ref Frames
Format settings, CABAC : Yes
Format settings, Reference frames : 4 frames
Codec ID : avc1
Codec ID/Info : Advanced Video Coding
Duration : 2 h 17 min
Bit rate : 2 500 kb/s
Width : 1 920 pixels
Height : 800 pixels
Display aspect ratio : 2.40:1
Frame rate mode : Constant
Frame rate : 23.976 (23976/1000) FPS
Color space : YUV
Chroma subsampling : 4:2:0
Bit depth : 8 bits
Scan type : Progressive
Bits/(Pixel*Frame) : 0.068
Stream size : 2.41 GiB (92%)
Writing library : x264 core 152 r2851M ba24899
Encoding settings : cabac=1 / ref=4 / deblock=1:-1:-1 / analyse=0x3:0x113 / me=umh / subme=9 / psy=1 / psy_rd=1.00:0.15 / mixed_ref=1 / me_range=24 / chroma_me=1 / trellis=2 / 8x8dct=1 / cqm=0 / deadzone=21,11 / fast_pskip=1 / chroma_qp_offset=-3 / threads=16 / lookahead_threads=4 / sliced_threads=0 / nr=0 / decimate=1 / interlaced=0 / bluray_compat=0 / constrained_intra=0 / bframes=3 / b_pyramid=2 / b_adapt=2 / b_bias=0 / direct=3 / weightb=1 / open_gop=0 / weightp=2 / keyint=250 / keyint_min=25 / scenecut=40 / intra_refresh=0 / rc_lookahead=50 / rc=2pass / mbtree=1 / bitrate=2500 / ratetol=1.0 / qcomp=0.60 / qpmin=0 / qpmax=69 / qpstep=4 / cplxblur=20.0 / qblur=0.5 / vbv_maxrate=31250 / vbv_bufsize=31250 / nal_hrd=none / filler=0 / ip_ratio=1.40 / aq=3:1.00
Encoded date : UTC 2022-10-28 19:52:14
Tagged date : UTC 2022-10-28 19:52:14
Codec configuration box : avcC

Audio
ID : 2
Format : AAC LC
Format/Info : Advanced Audio Codec Low Complexity
Codec ID : mp4a-40-2
Duration : 2 h 17 min
Bit rate mode : Constant
Bit rate : 224 kb/s
Channel(s) : 6 channels
Channel layout : C L R Ls Rs LFE
Sampling rate : 48.0 kHz
Frame rate : 46.875 FPS (1024 SPF)
Compression mode : Lossy
Stream size : 221 MiB (8%)
Language : English
Default : Yes
Alternate group : 1
Encoded date : UTC 2022-10-28 19:52:14
Tagged date : UTC 2022-10-28 19:52:14



SCREENSHOTS:



Downloads: 3
Category: Movies/HD
Size: 2.6 GB
Show Files »
files
Added: 2022-11-05 05:06:29
Language: English
Title: Stars at Noon
Rating: 0
Genres: DramaRomanceThriller
Year: 2022
Summery: In present-day Nicaragua, a headstrong American journalist and a mysterious English businessman strike up a romance as they become embroiled in a dangerous labyrinth of lies and conspiracies and are forced to try and escape the country.
Peers: Seeders : 12 , Leechers : 6
Release name: Stars.at.Noon.2022.PROPER.1080p.WEBRip.x264-RARBG
Trackers:

http://tracker.trackerfix.com:80/announce

udp://9.rarbg.me:2870/announce

udp://9.rarbg.to:2910/announce

udp://tracker.fatkhoala.org:13740/announce

udp://tracker.thinelephant.org:12790/announce





By using this site you agree to and accept our user agreement. If you havent read the user agreement please do so here